Ma video avec Linux

28 décembre 2017

Son créer une note

Créer le la avec ffmpeg.

ffmpeg -f lavfi -i aevalsrc="sin(440*2*PI*t)" -t 10 noteA4.mp3

ffmpeg -f lavfi -i "sine=frequency=440:duration=5" noteA4.mp3

Posté par saiga à 17:00 - Commentaires [0] - Permalien [#]


Affichage et enregistrement de la caméra

Commande pour afficher la camera  :

ffplay -f v4l2 -framerate 25 -video_size 640x480 -i /dev/video0

Pour enregistrer :
ffmpeg -f v4l2 -framerate 25 -video_size 640x480 -i /dev/video0 output.mkv
et avec le son :
ffmpeg -f v4l2 -framerate 25 -video_size 640x480 -i /dev/video0 -f alsa -ac 2 -i pulse -f mp4 record.mp4

Pour afficher la liste des périfériques :

-installer v4l-utils
-dans un terminal entrer : v4l2-ctl --list-devices

Pour connaitre les capacités : v4l2-ctl --list-formats-ext
ou
 ffmpeg -f v4l2 -list_formats all -i /dev/video0

Pour modifier les réglages de la caméra :
v4l2-ctl -c <option>=<value>
Pour avoir la liste des options : v4l2-ctl -L

Posté par saiga à 16:05 - Commentaires [0] - Permalien [#]

20 novembre 2017

Ffmpeg correction du contraste et de la brillance

Un clip vidéo était trop sombre, ffmpeg a permit de le sauver.

La valeur des options est d'abord recherchée avec ffplay :

ffplay -vf eq=contrast=3:brightness=1:saturation=1 L1040450.MP4

Puis lorsque l'on a trouvé la vidéo est encodée :

 ffmpeg -i L1040450.MP4 -vf eq=contrast=3:brightness=1:saturation=1 -c:a copy L450B.MP4

Pour le ton sépia :

ffmpeg -i L450B.MP4 -vf colorchannelmixer=.393:.769:.189:0:.349:.686:.168:0:.272:.534:.131  -c:a copy L450sepia.MP4

Pour un effet vintage :

 ffmpeg -i L450b.MP4 -vf curves=vintage  -c:a copy L450vintage.MP4

ffmpeg -i L450b.MP4 -vf curves=r='0/0.11 .42/.51 1/0.95':g='0/0 0.50/0.48 1/1':b='0/0.22 .49/.44 1/0.8'

-c:a copy L450vintage.MP4

Presets de curve :

none
color_negative
cross_process
darker
increase_contrast
lighter
linear_contrast
medium_contrast
negative
strong_contrast
vintage

Posté par saiga à 20:04 - Commentaires [0] - Permalien [#]

24 octobre 2015

Capturer une video de son écran

- Recordmydesktop

Dans un terminal > recordmydesktop

pour terminer ctr + alt + s

Pour filmer une fenêtre déterminer ses caractèristiques avec xwininfo.

Dans un terminal > xwinino

Comfigure alors recormydesktop comme suit :

Dans un terminal >$ recordmydesktop --windowid  0x3800004

 

 

Posté par saiga à 13:01 - Commentaires [0] - Permalien [#]

28 juin 2013

Mes commandes vlc

Pour visualiser le film de la caméra sur le pc (connection FireWire) :

$ dvgrab -- format dv2 - | vlc - :demux=rawdv 

Posté par saiga à 09:47 - Commentaires [0] - Permalien [#]


Mes commandes dvgrab

Pour visualiser le film de la caméra sur le pc (connection FireWire) :

$ dvgrab -- format dv2 - | vlc - :demux=rawdv 

Pour copier sur le disque avec un nouveau fichier après chaque pause de la caméra :

$ dvgrab --format dv2 --autosplit nomfichier.dv

Posté par saiga à 09:46 - Commentaires [0] - Permalien [#]

27 avril 2012

DVD d'une émission TV TNT

Suivre l'émission avec le programme Me TV,  lorsque l'on veut enregistrer cliquer sur le boutton rouge,  pour terminer cliquer de nouveau.

Un fichier de la forme Volt - EEN - mer 25 avr 2012 21:02:09 CEST.mpeg est créé,  renommer le avec un nom plus simple.

Le format est : 

Seems stream 0 codec frame rate differs from container frame rate: 50.00 (50/1) -> 25.00 (25/1)
Input #0, mpegts, from 'Volt - EEN - mer 25 avr 2012 21:02:09 CEST.mpeg':
Duration: 00:00:06.80, start: 40101.059567, bitrate: 3959 kb/s
Program 1000
Stream #0.0[0x1011]: Video: mpeg2video, yuv420p, 720x576 [PAR 64:45 DAR 16:9], 15000 kb/s, 25 tbr, 90k tbn, 50 tbc
Stream #0.1[0x1012](Lan): Audio: mp2, 48000 Hz, stereo, s16, 192 kb/s

Pour créer le DVD utiliser tovid ou DeVeDe.

Avec Brasero,  on peut graver en direct un SVCD.

PS avec DVD Styler un echec, error mplex unrecogniseable file.

Posté par saiga à 13:19 - Commentaires [0] - Permalien [#]

17 février 2012

DVDStyler mauvaise qualité du son ac3

Avec DVDStyler le son du menu doit être au format ac3 ou mp2 or la qualité du son extrait des fichiers provenant de Youtube n'est pas toujours bonne;  si on a une bonne qualité dans un autre format,  songer que tovid accepte beaucoup de formats pour le son du menu.

Posté par saiga à 08:52 - Commentaires [0] - Permalien [#]

07 février 2012

Fabrication d'une image DVD iso

Lorsque DVDStyler rate mais qu'il a créé ses fichiers dans /tmp/dvd-out,  il est possible de ne pas devoir tout relancer.

D'abord créer un image iso avec :

$ genisoimage -V "DVD" -o "/home/user/fichier.iso" -dvd-video "/tmp/dvd-out"

Ensuite graver l'image.

Posté par saiga à 13:54 - Commentaires [0] - Permalien [#]

28 janvier 2012

Fichiers de youtube sur DVD en Linux

Le moyen le plus rapide de faire un DVD avec menu simple à partir de fichiers provenant de Youtube,  c'est d'utiliser DeVeDe ou Tovid.

Il n'est pas nécessaire de convertir les fichiers en mpeg2,  c'est le programme qui s'en charge.

Choisir le mp4 720p lorsqu'il y a plusieurs formats.

Pour la musique de fond du menu extraire avec :

ffmpeg -i fichier.mp4 fichier.aif

Avec audacity sélectionner la partie de la plage et exporter en ogg.

DeVeDe propose l'écriture d'un fichier iso.

Remarque : un autre programme permet de faire rapidemment un dvd sans devoir convertir,  c'est DVD Styler;  il demande juste un peu plus d'investissement au départ.

Posté par saiga à 21:38 - Commentaires [0] - Permalien [#]