Suivre l'émission avec le programme Me TV,  lorsque l'on veut enregistrer cliquer sur le boutton rouge,  pour terminer cliquer de nouveau.

Un fichier de la forme Volt - EEN - mer 25 avr 2012 21:02:09 CEST.mpeg est créé,  renommer le avec un nom plus simple.

Le format est : 

Seems stream 0 codec frame rate differs from container frame rate: 50.00 (50/1) -> 25.00 (25/1)
Input #0, mpegts, from 'Volt - EEN - mer 25 avr 2012 21:02:09 CEST.mpeg':
Duration: 00:00:06.80, start: 40101.059567, bitrate: 3959 kb/s
Program 1000
Stream #0.0[0x1011]: Video: mpeg2video, yuv420p, 720x576 [PAR 64:45 DAR 16:9], 15000 kb/s, 25 tbr, 90k tbn, 50 tbc
Stream #0.1[0x1012](Lan): Audio: mp2, 48000 Hz, stereo, s16, 192 kb/s

Pour créer le DVD utiliser tovid ou DeVeDe.

Avec Brasero,  on peut graver en direct un SVCD.

PS avec DVD Styler un echec, error mplex unrecogniseable file.